WK綜合論壇, WK综合论坛

查看:218 回復:4 發表於 2021-7-23 18:07:22
本主題由 212love 於 2021-7-25 15:53 解除高亮
累計簽到:2133 天
連續簽到:1 天
發表於 2021-7-21 12:03:20 | 顯示全部樓層 |閱讀模式
VIP精品區,資源無限好賺金任務區,輕松賺金幣
加入VIP,享受高級特權宣傳賺金又升級,超級棒

未懷孕/堕胎 Unpregnant, 2020.[MKV / 10.54G] 2160p [複製鏈接]

影視分享
分類: 電影
題材: 劇情 喜劇 
地區: 美國 
語言: 英语 
格式: MKV 
年份: 2020
資源: BT资源
1.png
7 L1 Y' s# I, [. T! N) i0 ~# `( d* ]9 v" p3 y
◎译  名 未怀孕/堕胎
/ s  x5 X& F) v5 s" [( p5 G- a" ]◎片  名 Unpregnant
7 A7 v/ W& a6 ^! v◎年  代 2020
6 Z/ Y% ]# y; c, T9 H◎产  地 美国9 @. X- f5 Y- \5 R/ Y# x
◎类  别 剧情 / 喜剧9 Z( X' n3 T! `- E: a
◎语  言 英语( T; k. v6 ^! h/ g# J9 a3 ?
◎上映日期 2020-09-10(美国网络)
9 [% W% b: {0 S  g# Q4 |◎豆瓣评分 6.8/10 from 1496 users, d; w- \" B- ~3 t
◎豆瓣链接 https://movie.douban.com/subject/34440481/# o( z: v9 v, \. m. a9 Y
◎片  长 103分钟
# ]) s: X2 _4 n$ k! {0 U◎导  演 蕾琪儿·戈登堡 Rachel Goldenberg
2 T" L1 v. L, T5 N◎编  剧 詹妮·亨德里克斯 Jenni Hendriks / 蕾琪儿·戈登堡 Rachel Goldenberg / 比尔·帕克 Bill Parker / 詹尼弗·凯廷·罗宾逊 Jennifer Kaytin Robinson / 泰德·卡普兰 Ted Caplan / Ted Caplan Ted Caplan' D# f0 L/ f, e. V1 Y( V/ |
◎主  演 海莉·露·理查森 Haley Lu Richardson
" u: h% i5 i9 `9 z+ r# P  F  q      芭比·费雷拉 Barbie Ferreira: i! E% ^  t' Q/ i$ M- G% I/ b% X
      吉安卡罗·埃斯波西托 Giancarlo Esposito! a- z; d/ h( R6 J$ u, y
      亚历克斯·马克尼科尔 Alex MacNicoll, a' g; B6 y1 R% y+ @# o4 \6 _
      布瑞金·梅耶 Breckin Meyer
6 ~+ y) B6 \  Q7 m) G- d0 ]      舒格·林·彼尔德 Sugar Lyn Beard
/ Y; G; [# Z$ q- ?) l5 S) o8 A7 @      丹尼·洛夫 Denny Love
# _4 n, ?" q+ T; A      玛丽·麦克科马克 Mary McCormack
1 z5 u4 \1 r7 m1 C      贝蒂·胡 Betty Who
: M) f& H2 r# |: m  w      杰瑞尔·普雷斯科特 Jeryl Prescott
; B0 p) S5 H9 \( ^, D0 `; i, V      雷蒙娜·杨 Ramona Young
  s! j" \" j& C' N+ ^8 c      卡拉·罗伊斯特 Kara Royster
3 ~" e) \  B7 `. z      梅格·史密斯 Meg Smith
7 k2 I" v* A2 N6 L. B      莎朗·安妮·亨德森 Sharon Anne Henderson: o# j  P1 a6 g$ l; D/ \% w
      马科斯·德席尔瓦斯 Marcos De Silvas, H& g  f* {6 I- ^9 u$ _/ P
      戴安娜·维利加斯 Diane Villegas% C9 D8 \# \. s/ r, c
      玛丽·瓦根曼 Marie Wagenman% T9 ?$ P" O- F+ h

; f% O' Q0 o8 v0 w( i& X◎标  签 青春 | 喜剧 | 美国 | 公路 | 成长 | 2020 | 友情 | 剧情
& l) \# v2 h5 y0 P1 g' V  R* ~
. i) L* n$ p# S- |2 x. z6 _/ \◎简  介
2 ~+ }) g- z% |* v% ?9 o! p
0 ^0 `& ?- o- Q, ]2 j$ z  女孩Veronica(理查森)发现自己怀孕了,她只能和有车的“前”好友Bailey(Ferreira)一起上路,寻求合法堕胎:Veronica的男友很窝囊,她自己也不想这么年轻就当妈妈,不然会影响她的常春藤大学梦。而她所在的美国密苏里州规定未成年人必须有父母同意才能堕胎,她的父母并不同意。Veronica决定旅行900英里,去新墨西哥州堕胎后回家。
0 E' O7 q+ Y; \9 A  t3 A  
  i4 X5 h! n5 N, U  P. w/ w, G  Veronica是个沉迷于ins、成绩优秀、雄心勃勃的好学生,而Bailey是个孤独、毒舌的酷儿,对Veronica的新朋友们忍耐度为零。这样两个人怀着这样的目标一起上路,途中行差踏错,既有动情之处,又有幽默。: V% r4 t: d/ t" I$ ?* [8 I
Video8 h) n4 g8 [. K6 G4 F! c. D+ g
ID : 1: q+ o7 ^# }) o2 T4 o: [" n7 R
Format : HEVC
8 X% ]& ]7 W8 J* @% q2 TFormat/Info : High Efficiency Video Coding
) y: g9 u- @* g' _Format profile : Main [email protected]@High
6 J, y4 Z% u( ^' ^4 f9 BHDR format : SMPTE ST 2086, HDR10 compatible% }! K7 J8 G7 t, O( W6 X# y1 I+ D
Codec ID : V_MPEGH/ISO/HEVC6 C1 `' c0 r  ?& i/ Y4 y
Duration : 1 h 43 min
: j3 Y# G# z  q# v& [; @6 P& \Bit rate : 14.2 Mb/s
; |, Z$ W. w' G2 F0 N: qWidth : 3 840 pixels
  r8 T% n- l- l* _8 ZHeight : 1 608 pixels! ]; f' e0 p" X6 k& C3 e
Display aspect ratio : 2.40:19 K7 P/ W2 w' `
Frame rate mode : Constant
- r* Z( _- J. u3 ~Frame rate : 23.976 (24000/1001/189150) FPS/ C2 r$ E  Y- V5 d, S
Color space : YUV" ]* S& e; L1 B" {
Chroma subsampling : 4:2:0 (Type 2)& `; j. H: i7 T6 _/ q
Bit depth : 10 bits
" D6 o( ~9 M6 OBits/(Pixel*Frame) : 0.096. ~% s) e( H/ X
Stream size : 10.3 GiB (97%)
& F8 R6 {+ X0 [) ALanguage : English
# i% M& S" ]3 u4 t6 N$ sDefault : Yes
1 ]8 E' Y1 E/ C9 ^, iForced : No
. q6 N: l/ I6 z$ pColor range : Limited7 h& ~# |0 D$ Y* O, V8 j+ R% Z% J3 a1 F
Color primaries : BT.2020% V6 g  ^& Y: ]" p- e
Transfer characteristics : PQ
5 z2 H# w& h0 ?6 R! AMatrix coefficients : BT.2020 non-constant
, k$ }# W* ^) ~3 RMastering display color primaries : BT.2020
2 L# Z! W7 c7 T9 U4 B, H* T# M( bMastering display luminance : min: 0.0050 cd/m2, max: 1000 cd/m2" _$ p+ h; }. f
Maximum Content Light Level : 978 cd/m2# O+ b! ?& K( T! H5 G& ~
Maximum Frame-Average Light Level : 155 cd/m2: b6 b9 ]( }( I; w6 k6 L2 k

) |( p5 F5 i/ w0 }: Z3 zAudio
# q& s5 k' b6 k* S# bID : 2( M2 z# v: m4 h% `' F
Format : AC-3* k$ O! d: K/ A3 J7 j* {
Format/Info : Audio Coding 3
' P* P; t/ C0 ~; Q) J7 z' ICommercial name : Dolby Digital
5 z: S" r8 P0 b" J* U8 iCodec ID : A_AC3+ d0 ]' g% o9 F- ^' n
Duration : 1 h 43 min
2 p0 ~% g: [( v& G8 F$ u4 n* SBit rate mode : Constant& S' Z3 F2 @( ^# \3 M% N
Bit rate : 384 kb/s. Q) N4 Y3 y/ B& [1 _, @
Channel(s) : 6 channels: k+ A0 L# U4 D, x* }) J
Channel layout : L R C LFE Ls Rs
* a: `  x$ u. @; uSampling rate : 48.0 kHz$ h( G# M- }# C+ f3 |7 Y% g
Frame rate : 31.250 FPS (1536 SPF)7 H! b1 x! ^2 [! u- D' V3 L
Compression mode : Lossy
. K- l9 X$ d+ X; U* R- z. v) qStream size : 285 MiB (3%)! m+ |# Q7 `% \4 B9 ^
Language : English6 }6 }- Q- Y. `! ?7 {* l
Service kind : Complete Main
( {4 k4 o0 n: p% K* k/ F7 HDefault : Yes# F" V' c0 E/ _* e' {) T
Forced : No
) _/ {' z; T1 n0 C7 H" ^+ G& e4 B5 S. C' @8 }+ D
Text
9 `& G: X4 ~7 D4 GID : 3$ s& X& U  j0 l" R6 U4 p
Format : UTF-8
0 ]5 ?5 |3 y3 {2 c6 X. lCodec ID : S_TEXT/UTF8/ C7 B% j, n9 ]1 s" m
Codec ID/Info : UTF-8 Plain Text
" }% e/ [) D' iDuration : 1 h 39 min
0 ^# p5 y/ r& s, D5 PBit rate : 78 b/s
0 n- _" t/ M) E0 \, A7 d! eCount of elements : 1677
+ C% L. k) {7 T' M! [" O  r: jStream size : 56.7 KiB (0%)
' m! V  T  w) {: ?$ B# @9 U+ aTitle : (SDH)8 g) ?3 o, e5 z3 o. E
Language : English* U9 J' L5 q4 ~4 s/ c
Default : No  T& ]4 e' W2 `9 X& T+ S; m
Forced : No
3 a0 ~) q7 \; ?8 F' w( |( v

0 x! o+ j1 i8 u: Z

未懷孕. MKV.torrent

13.81 KB, 下載次數: 8

累計簽到:73 天
連續簽到:73 天
發表於 2021-7-22 05:11:08 | 顯示全部樓層
VIP精品區,資源無限好賺金任務區,輕松賺金幣
加入VIP,享受高級特權宣傳賺金又升級,超級棒
兩個人懷著這樣的目標一起上路,途中行差踏錯,既有動情之處,又有幽默。感謝樓主精采分享。
累計簽到:270 天
連續簽到:1 天
發表於 2021-7-22 21:18:02 | 顯示全部樓層
VIP精品區,資源無限好賺金任務區,輕松賺金幣
加入VIP,享受高級特權宣傳賺金又升級,超級棒
感謝樓主精采分享
累計簽到:250 天
連續簽到:1 天
發表於 2021-7-23 18:07:18 | 顯示全部樓層
感謝大大的辛勞分享!我會繼續在WK關注大大的文章!
累計簽到:250 天
連續簽到:1 天
發表於 2021-7-23 18:07:22 | 顯示全部樓層
VIP精品區,資源無限好賺金任務區,輕松賺金幣
加入VIP,享受高級特權宣傳賺金又升級,超級棒
感謝大大的辛勞分享!我會繼續在WK關注大大的文章!

回復樓主 親!! 現在是淩晨!妳失眠啦?餓啦?通宵加班?還是想WK啦?

 分享同時學會感恩,一句感謝的話語,就是最大的支持!  歡迎交流討論
您需要登錄後才可以回帖 登錄 | 立即注册

本版積分規則

c重要聲明:本論壇是以即時上載言論的方式運作,WK論壇對所有言論的真實性、立場及版權等,不負任何法律責任。而一切言論只代表發佈者個人意見,並非本網站之立場,讀者及用戶務必自行判斷內容之真實性。 由於本論壇受到「即時上載言論」運作方式所規限,故不能完全監察所有言論,若讀者及用戶發現有內容出現「真實性、立場及版權」等問題,請聯絡我們:[email protected]論壇有權刪除任何言論(刪除前或不會作事先警告及通知)| SiteMap[網站地圖]

發表新帖 返回頂部