WK綜合論壇, WK综合论坛

查看:183 回復:3 發表於 2021-7-22 22:08:54
本主題由 212love 於 2021-7-25 15:53 解除高亮
累計簽到:2133 天
連續簽到:1 天
發表於 2021-7-21 11:56:25 | 顯示全部樓層 |閱讀模式
VIP精品區,資源無限好賺金任務區,輕松賺金幣
加入VIP,享受高級特權宣傳賺金又升級,超級棒

大河之舞25周年紀念演出 Riverdance.25th.Anniversary.Show., 2020.[MKV / 5.07G] 1080p [複製鏈接]

影視分享
分類: 紀錄片
題材: 家庭 
地區: 英國 
語言: 英语 
格式: MKV 
年份: 2020
資源: BT资源
p2622247428.webp.jpg - C7 u7 B5 F( g5 ^8 _! S
◎译  名 Riverdance 25th Anniversary Show% {  W$ o8 C+ {" q% B6 T( o
◎片  名 大河之舞25周年纪念演出
% H# e% s  U* {5 g0 }8 ?◎年  代 2019
5 i/ ?# ~8 |3 u5 r◎产  地 英国3 l2 G% f' P# `
◎类  别 家庭
" i% k  W, S7 x; e◎上映日期 # w  t% F0 e5 h" p- g1 z4 ], A- K+ `8 X
◎豆瓣评分 /10 from 0 users# @6 r! e8 o3 E- A) o6 N
◎豆瓣链接 https://movie.douban.com/subject/35215116/2 z2 b& o- h+ u" |
◎导  演 Chris Hunt Chris Hunt
) l% ?) y! G8 r8 K
: F; l# b- o& v. w( N9 z9 c3 j◎标  签 爱尔兰 | 音乐 | 纪录片 | 歌舞 | 十八 | 英国 | M2S | IRL
9 B5 h+ D  }) Z) a0 Z
# R/ a3 r3 H  n. S0 t. k& H◎简  介
: R" I  i+ b% Y1 R
$ x: ^8 h. }: ^( @  25年前,在欧洲歌唱大赛上的7分钟幕间表演永远改变了爱尔兰舞蹈的面貌,开创性的形式、舞蹈与音乐的完美结合,令电视机前收看的上百万世界观众深深为之折服,沉浸在踢踏舞的魅力中。
+ g  V, @0 A$ z) k; @$ M% b  ' W% E* J; g1 O
  25年间,大河之舞早已成为蜚声海内外的现象级演出,培养出迈克尔·弗莱利、让·巴特勒等一众明星舞者,先后登上伦敦西区与纽约百老汇舞台,获得过包括格莱美音乐奖在内的多项大奖。此次25周年纪念版演出在首演福地都柏林现场录制,这也是大河之舞首次被搬上大银幕。作曲家比尔·惠兰为其重新录制了风格鲜明、旋律动听的配乐,夫妻档主创莫亚·多尔蒂和约翰·麦考根则采用最新的灯光、投影技术,创造性的舞台和服装设计,对这一经久不衰的作品进行了全新改造。7 a' C& X1 g0 K) @& F: {; @# F5 E/ y
  
# ^0 f) p- q1 j7 k  上千次的踩踏击打,简单明快,激情澎湃。席卷全球的爱尔兰踢踏舞大河之舞被视为一生必看的演出之一。25周年纪念版演出将为更多的家庭献上视听盛宴,续写它的传奇。4 e, q5 w! f! S9 j
Video
: q* P* U+ e8 O" F7 D; ~ID : 1
0 D/ B$ z# Y9 l; q3 l8 n3 kFormat : AVC$ z# x7 Q. T% f4 \% u( H3 I# w
Format/Info : Advanced Video Codec
1 D; e! X& \* V7 b* W0 xFormat profile : [email protected]8 [1 U- Z& Q9 Q! s# s% \8 [! v
Format settings : CABAC / 4 Ref Frames
3 _& v2 B; b5 ?- i, b; fFormat settings, CABAC : Yes1 U& v5 b) X1 p" I! d; D5 s
Format settings, Reference frames : 4 frames
" f- }/ T& {& y9 PCodec ID : V_MPEG4/ISO/AVC! s' G! R- |! N4 \& o& j. R7 c
Duration : 1 h 49 min5 d* l4 l% z) w$ I" W8 t
Bit rate mode : Constant4 }$ J' @1 j# y+ T3 I) i2 @3 g
Bit rate : 6 500 kb/s3 ?& z/ R2 h6 z
Width : 1 920 pixels  T( M  e7 n' g6 f' h
Height : 1 080 pixels
0 y9 P& J5 b: l& Q$ b3 h$ P( gDisplay aspect ratio : 16:9  H2 V3 K% Q9 Z2 L0 r3 q0 c) P
Frame rate mode : Constant# W, ]5 Y' L' X/ |2 h' @
Frame rate : 29.970 (30000/1001/189150) FPS
) U/ H. u7 _9 sColor space : YUV% }! E) }% m) N* |# C) _" J0 h( Z
Chroma subsampling : 4:2:0
" \( a. y1 \3 X8 ]4 |% XBit depth : 8 bits
1 J% U4 }2 W/ D3 W! |Scan type : Progressive5 [8 _& J6 p' @
Bits/(Pixel*Frame) : 0.105' O3 d6 C2 k3 K3 P$ B
Stream size : 4.94 GiB (98%)
2 y5 y1 H: q5 S* A% p+ GLanguage : English
1 E3 P' @$ X; M5 |7 PDefault : Yes4 L# K8 z! N) h( K9 j
Forced : No2 d8 {* h' h/ f$ |: Q- j- F6 ?

# g# f. Y' g% P* \* f) a2 OAudio3 z1 v! G# Y$ e4 L, q% A/ K; H
ID : 2
7 K: X0 K: \9 iFormat : AAC LC
7 T1 p6 m' r2 N0 c; O* K: zFormat/Info : Advanced Audio Codec Low Complexity5 s9 Y& M! R# E% |: X% h6 T$ E
Codec ID : A_AAC-2/ E& t/ |& H" }! \1 h% [
Duration : 1 h 49 min
- X0 ?" ?$ }2 w4 d  r2 A  X" jBit rate : 157 kb/s
! U! R+ g# e5 c* h, R7 `Channel(s) : 2 channels6 s' O$ U; G9 ~7 c) [  H- |
Channel layout : L R+ B9 n4 a, ]1 f3 D# j: O
Sampling rate : 48.0 kHz& r6 f/ ^% J9 I* _# {$ }; `
Frame rate : 46.875 FPS (1024 SPF)) k# F0 u, X6 z* N1 Y3 B" N
Compression mode : Lossy. I# J3 k! W# y& Y# ?. ]8 D; K
Stream size : 124 MiB (2%)9 R) y" b' c% o) ~6 C: f
Language : English. M9 c+ k8 C8 V  H8 J1 M& F
Default : Yes8 b+ M) z- F0 c! K9 g
Forced : No
( m* I8 I0 Y2 E" @, E" J/ l' N) ]% f. \: q! V
Text
  e2 s& ?; R/ |9 E" @0 QID : 3
& M$ `! D6 S; G5 UFormat : UTF-82 F' N. i# A6 ]$ u; F. l
Codec ID : S_TEXT/UTF8
* u  j/ C3 o& T- ^Codec ID/Info : UTF-8 Plain Text
* s8 z% s+ S: E3 ]9 \Duration : 1 h 49 min7 g$ q& a/ |7 p2 n5 ]0 Q" o5 J
Bit rate : 20 b/s
; P/ ^) W! d7 jCount of elements : 475
9 Z+ t/ |3 L( @" ~8 n# m- o# xStream size : 16.3 KiB (0%)$ b( m* ~  ~* `% @# O
Language : English  j/ Q; R8 K- F! N6 v( z4 {" F
Default : No3 S+ s- b) q$ @
Forced : No
$ _5 f$ J5 k  u: c& E- C

3 I+ w) Z; b0 b! h% [, l. b& ^6 A. U. b: d

大河之舞25周年紀念演出. MKV.torrent

13.33 KB, 下載次數: 62

累計簽到:1844 天
連續簽到:22 天
發表於 2021-7-22 02:14:30 | 顯示全部樓層
VIP精品區,資源無限好賺金任務區,輕松賺金幣
加入VIP,享受高級特權宣傳賺金又升級,超級棒
感謝大大的辛勞分享!我會繼續在WK關注大大的文章!
累計簽到:73 天
連續簽到:73 天
發表於 2021-7-22 05:04:09 | 顯示全部樓層
VIP精品區,資源無限好賺金任務區,輕松賺金幣
加入VIP,享受高級特權宣傳賺金又升級,超級棒
愛爾蘭舞蹈功底非常的紮實整個作品非常的具有藝術性感謝樓主精采分享
累計簽到:754 天
連續簽到:1 天
發表於 2021-7-22 22:08:54 | 顯示全部樓層
很讚的文章,謝謝咯!相信WK因為有你而更加精彩!

回復樓主 親!! 現在是淩晨!妳失眠啦?餓啦?通宵加班?還是想WK啦?

 分享同時學會感恩,一句感謝的話語,就是最大的支持!  歡迎交流討論
您需要登錄後才可以回帖 登錄 | 立即注册

本版積分規則

c重要聲明:本論壇是以即時上載言論的方式運作,WK論壇對所有言論的真實性、立場及版權等,不負任何法律責任。而一切言論只代表發佈者個人意見,並非本網站之立場,讀者及用戶務必自行判斷內容之真實性。 由於本論壇受到「即時上載言論」運作方式所規限,故不能完全監察所有言論,若讀者及用戶發現有內容出現「真實性、立場及版權」等問題,請聯絡我們:[email protected]論壇有權刪除任何言論(刪除前或不會作事先警告及通知)| SiteMap[網站地圖]

發表新帖 返回頂部