WK綜合論壇, WK综合论坛

查看:125 回復:1 發表於 2021-7-22 05:02:13
本主題由 212love 於 2021-7-25 15:53 解除高亮
累計簽到:2133 天
連續簽到:1 天
發表於 2021-7-21 11:51:31 | 顯示全部樓層 |閱讀模式
VIP精品區,資源無限好賺金任務區,輕松賺金幣
加入VIP,享受高級特權宣傳賺金又升級,超級棒

我沒談完的那場戀愛.Between.Us., 2021.[MKV / 10.84G] 國語 2160p [複製鏈接]

影視分享
分類: 電影
題材: 愛情 
地區: 中港台 
語言: 國語 
格式: MKV 
年份: 2021
資源: BT资源
6 F7 G3 V. S9 j8 I( w/ y
" e7 P* @7 ]" E4 a
◎译  名 我没谈完的那场恋爱 / 不说再见; L' s3 o9 O7 A: J8 K
◎年  代 2021, t& x& B4 m' z3 o
◎产  地 中国大陆9 F7 L2 c# d- [, U
◎类  别 爱情# L5 v% Z) Y! \$ Q, S5 V5 T
◎语  言 汉语普通话
2 p* ^( p! i7 {! ?  r( _3 C◎上映日期 2021-06-25(中国大陆)6 X- y2 N% Y$ p
◎IMDb链接 https://www.imdb.com/title/tt11662974/
3 }; {* N0 D, r! x8 L5 M3 s◎豆瓣评分 4.0/10 (3177人评价)
5 U% \: i2 @% o* x# C◎豆瓣链接 https://movie.douban.com/subject/35442444/
5 c( E7 x0 v3 T◎片  长 97分钟
: n9 J9 G5 y- A$ L/ y◎导  演 赵宇 Yu Zhao (id:1320916)
0 x9 z2 [2 @* q, o! e( i◎编  剧 赵宇 Yu Zhao (id:1320916)
2 u, j" ]5 O3 d2 x$ Y" T: S      陈梦怡 (id:1457200). E2 {. c  M' _& h7 H. E
      李绚彦 Xuanyan Li (id:1335262)9 N- X: D( S) X4 d6 @$ ~' ]
◎演  员 于文文 Kelly Yu (id:1342252)/ w" f4 W8 q$ d& ]& F  \& g
      宋宁峰 Ningfeng Song (id:1313368)+ L" D* h( \6 V9 n4 c' w/ ?$ p
      刘琦 Mulligan liu (id:1398572)- K& w( A+ ^% S: n: D: i9 T5 J
      李博 Bo Li (id:1456618). L4 j! A5 @  N1 `: v  y& _
      刘奕 Yi Liu (id:1335268)8 X) h3 D; S- N7 ]+ C! X3 H
      尹菲 Fei Yin (id:1350802)
! b. r9 k) n$ [" a+ `1 ]      曹力 Li Cao (id:1274714)
, w. F7 ^' W3 Z! P0 [& g1 c      佘南南 Nannan She (id:1342105)
. z2 T% ^# V# R( h% y3 D      殷成阳 Chengyang Yin (id:1408013)
. G9 [  \9 R, s7 y; K5 \- [: C! f1 p$ ?" f" G& ?3 Y- d
◎标  签 爱情 / 遗憾 / 音乐 / 梦想 / 国产 / 2021 / 渐冻症 / 怀旧3 X' ^5 p1 H( x: Q; d
+ @- e8 p, ]: a* J
◎简  介+ e, I3 Y- i0 D3 h' p
  本片讲述了两个千差万别却同样迷茫的年轻音乐人,一个是多年打拼,事业毫无起色,又屡遭生活暴击的和声歌手珊妮,一个是身患重病,隐姓埋名等待死亡降临的前摇滚乐手董东,对生命感到绝望的二人在自我了断时相遇......自杀计划流产,他们的生活也因彼此的出现发生改变。$ E. P# |' x/ m' P# W% B
另外一个时空的故事,从珊妮意外发现的一本1970年代的日记中铺陈开来,一段没有下文的悲伤爱情竟然在珊妮的努力下尘埃落定。跟音乐、爱情和人生有关的种种,让珊妮与董东的相遇愈发神奇。千丝万缕中,是否每一种爱都能开花结果? 他们能否找到继续爱这个世界的理由?. V, _0 \# l0 Q* @% l
  r0 W; D" r4 G# `9 h" P
General
' e7 Y, g( j+ a4 L6 m/ fComplete name : 我没谈完的那场恋爱.Between Us 2021 WEB-DL 2160p H265 [email protected]
2 I$ d6 `6 H; s6 M. r2 RFormat : MPEG-4
7 p, ]- ^. Y: m% f* CFormat profile : Base Media
/ r5 q! D; p5 G) ~: A9 A: wCodec ID : isom (isom/iso2/mp41)7 }1 a. Q' G. S9 C
File size : 10.8 GiB
7 r/ D) \; c/ w/ I1 eDuration : 1 h 37 min
2 b) ]/ |' z+ |. Y% z  h( i% WOverall bit rate : 16.0 Mb/s) u' z4 l/ i; J1 z2 k2 }
Recorded date : 2021-07-18T07:16:49.4348074+08:00
- L0 J; F# u( w0 p, lWriting application : Lavf58.32.1045 v) g, E( P5 B+ Z% ^# Y' `% b2 W0 Y3 r
4 b# }% P  p$ J% ]+ b% D9 g' X: V8 l
Video; I2 ?( w& a; b7 d
ID : 1
: b9 [7 `& R1 CFormat : HEVC
( g. S+ t) l$ c5 kFormat/Info : High Efficiency Video Coding; [7 s7 t* h8 U- V* {3 t" O, v8 K
Format profile : [email protected]@Main; U5 g: v! h+ ]- g
Codec ID : hev1
" I7 o# n* Y5 S* f0 V6 }% Z' ]3 t0 ICodec ID/Info : High Efficiency Video Coding5 U, y; _% {. a; @. I0 O
Duration : 1 h 37 min
- c- l7 V- o/ l$ Q# {Bit rate : 15.8 Mb/s
0 @% l) k: O5 I- P* f: T/ WWidth : 3 840 pixels4 g5 l$ O& T$ w$ j
Height : 2 160 pixels# R! q3 j: t! v- D) B+ z
Display aspect ratio : 16:9" `& Z+ c& i- T( A0 x: Y5 [' F
Frame rate mode : Constant) j# Q) u( s0 V+ O
Frame rate : 24.000 FPS) b# G4 n8 ]8 G3 ]: K
Color space : YUV- x6 F5 s+ g5 ~" C( ?+ G
Chroma subsampling : 4:2:06 e% }* T* _9 g' t
Bit depth : 8 bits9 H) h+ X0 a9 k; g9 @8 T
Bits/(Pixel*Frame) : 0.0797 ^+ k6 y- h8 b. H9 K
Stream size : 10.7 GiB (99%)
6 X* J, w- _, tCodec configuration box : hvcC) \& t2 A: N. `5 j. `: _3 l
' R# m! [9 ^" }1 Y/ Y' G! L
Audio: o9 C7 M: D8 W* H# k
ID : 2
4 ]+ @/ G! S" xFormat : AAC LC) u& |" s& b1 T# F# U
Format/Info : Advanced Audio Codec Low Complexity
" E5 v1 T+ N6 e8 B' g. D& d( LCodec ID : mp4a-40-2$ y/ _6 ~+ G8 D( y
Duration : 1 h 37 min
$ G  i4 @0 E6 j1 D- _4 }Bit rate mode : Constant
9 A" P# X- }- s7 aBit rate : 192 kb/s
# `2 ~7 W$ C' v% H. C/ k, JChannel(s) : 2 channels/ _, C! H& `+ a2 f& E
Channel layout : L R
  b3 E4 S/ P0 s; T% `8 Z6 f! PSampling rate : 44.1 kHz
) S2 B. ^) h9 H, m, W/ {Frame rate : 43.066 FPS (1024 SPF)
' T+ S; S- Z: h2 y/ f' oCompression mode : Lossy
1 X" A! R3 w1 R3 wStream size : 132 MiB (1%)* S  T: J" N0 a
Default : Yes
6 e3 [, l: v% c% t, Y; qAlternate group : 1

( `0 T$ [6 u3 R* C9 h" g, Z/ D
: g& A, s3 H4 g$ [  Z2 v6 i% s. X! ]# |# c. r1 h

我沒談完的那場戀愛. MKV.torrent

31.82 KB, 下載次數: 23

累計簽到:73 天
連續簽到:73 天
發表於 2021-7-22 05:02:13 | 顯示全部樓層
VIP精品區,資源無限好賺金任務區,輕松賺金幣
加入VIP,享受高級特權宣傳賺金又升級,超級棒
本片講述了兩個千差萬別卻同樣迷茫的年輕音樂人跟音樂、愛情和人生有關的種種....耐人尋味 感謝樓主精采分享

回復樓主 親!! 現在是淩晨!妳失眠啦?餓啦?通宵加班?還是想WK啦?

 分享同時學會感恩,一句感謝的話語,就是最大的支持!  歡迎交流討論
您需要登錄後才可以回帖 登錄 | 立即注册

本版積分規則

c重要聲明:本論壇是以即時上載言論的方式運作,WK論壇對所有言論的真實性、立場及版權等,不負任何法律責任。而一切言論只代表發佈者個人意見,並非本網站之立場,讀者及用戶務必自行判斷內容之真實性。 由於本論壇受到「即時上載言論」運作方式所規限,故不能完全監察所有言論,若讀者及用戶發現有內容出現「真實性、立場及版權」等問題,請聯絡我們:[email protected]論壇有權刪除任何言論(刪除前或不會作事先警告及通知)| SiteMap[網站地圖]

發表新帖 返回頂部